[2] Drummer Rat Scabies mentioned that the group had demoed the song "In Dulce Decorum", but most of the songs were written in the studio. Your recently viewed items and featured recommendations, Select the department you want to search in. INDEX 01 00:00:00 Phantasmagoria is mainly Vanian’s show. An EP of the album’s “Is It a Dream” adds four live tracks. TRACK 06 AUDIO [1] The group began having issues with technology on the tour (the brass parts of "Psychomania" crept in when the group were performing "In Dulce Decorum") and had to use an emulator to recreate some of their studio sound. [1] During a booking hiatus, the group returned to performing shows as the alter ego Naz Nomad and the Nightmares. [7][8] MCA followed the release of Anything with a Damned compilation album titled Light at the End of the Tunnel in November 1987. 7 | 29:18.26 | 5:11.10 | 131876 | 155210 ), Surprisingly enough, the second Damned opus turned its back on new wave formalistics and was produced by Nick Mason, drummer of true blue old farts Pink Floyd. FILE “05 The Year Of The Jackal (Bonus Track).wav” WAVE Track quality 100.0 % Anything is the seventh studio album by the Damned, released by MCA Records in 1986. TITLE “Gigolo” I’m Alright Jack and the Beanstalk is a re-release of the songs from Not of This Earth (all four versions differ in artwork and/or running order) with bonus BBC tracks. REM DISCID B20F8C0D Mindless, Directionless, Energy, recorded live in London (1981) with the Scabies-Sensible-Vanian-Gray lineup, boasts crummy sound and an indifferent set of songs. His imposing baritone provides all the character the graveyard songs like “Grimly Fiendish” and “Sanctum Sanctorum” lack. Null samples used in CRC calculations : Yes Don't Cry Wolf. Test CRC 7B709A65 Stab Yor Back. TITLE “Temptation (Bonus Track)” I Fall. INDEX 00 03:57:24 Track quality 100.0 % Politics. ), The Damned broke up and reformed several times before cutting Machine Gun Etiquette with a new lineup. INDEX 00 04:57:55 Size: 768,32 MB TITLE “Psychomania (Live) (Bonus Track)” Extraction speed 4.2 X Bitrate: ~800 kBit/s (44.1 kHz/16 Bit/s) Track quality 100.0 % ISRC GBUM70810593 9 | 37:10.58 | 4:10.08 | 167308 | 186065 Copy CRC FDF13EBA Copy OK, Filename F:\The Damned\The Damned – Anything (Expanded Edition) (1986, 2009)(Island UMC, 5316215)[CD FLAC]\CD 1\04 Restless.wav, Peak level 97.7 % 9 | 38:33.37 | 6:29.71 | 173512 | 202757 Copy CRC 66657DE1 Accurately ripped (confidence 25) [091CD074] (AR v2) 1 | (28/28) Accurately ripped The Damned’s lineup of Vanian, Rat, Roman Jugg (the guitarist/keyboardist who joined in 1981) and Bryn Merrick (bass) lasted from 1984 until 1987, and stability proved deleterious to the band’s creativity. 2 | (28/28) Accurately ripped INDEX 01 00:00:00 Check out Beat Girl by The Damned on Amazon Music. INDEX 01 00:00:00 The Damned MCA Singles A & B . The live Final Damnation, taped the previous year in London, has 17 of the songs you want to hear performed at reasonable tempos in a powerful mix of musical skill and self-amused abandon. PERFORMER “The Damned” Track quality 100.0 % Cover incl. [1], In the United States, MCA released "Anything", "In Dulce Decorum" and "Alone Again" as singles. Test CRC 8363F86B Copy OK, Filename F:\The Damned\The Damned – Anything (Expanded Edition) (1986, 2009)(Island UMC, 5316215)[CD FLAC]\CD 1\09 Psychomania.wav, Peak level 97.7 % Extraction speed 4.6 X 5 | 17:17.62 | 4:49.28 | 77837 | 99539 Track quality 100.0 % Extraction speed 2.9 X album: "Music For Pleasure" (1977) Problem Child. FILE “10 Psychomania (Live) (Bonus Track).wav” WAVE Extraction speed 2.6 X It also analyses reviews to verify trustworthiness. ISRC USUM70817492 Jon Kelly’s production (complete with horror-film effects and phantom-of-the-opera organ) is adequate, but the Damned no longer has a unique sound beyond Vanian, so it’s fairly academic. Track quality 100.0 % TRACK 12 AUDIO Your Amazon Music account is currently associated with a different marketplace. Prime members enjoy fast & free shipping, unlimited streaming of movies and TV shows with Prime Video and many more exclusive benefits. 1 | (26/26) Accurately ripped New Rose. Copy CRC F63BCC6A TITLE “In Dulce Decorum” Selected bitrate : 1024 kBit/s INDEX 01 00:00:00 Copy CRC C316F42A 7 | (28/28) Accurately ripped Fish. Copy CRC D055F0DC Extraction speed 2.9 X Paula appears to be heavily based on Sid Vicious' deceased girlfriend Nancy Spungen in terms of appearance and temperament. 12 | 56:50.34 | 4:48.72 | 255784 | 277455 Copy CRC 9AD6A6AF February 2018, 20:40, Track | Start | Length | Start sector | End sector Copy OK, Filename F:\The Damned\The Damned – Anything (Expanded Edition) (1986, 2009)(Island UMC, 5316215)[CD FLAC]\CD 1\06 Gigolo.wav, Peak level 97.7 % ISRC USUM70817912 Alone. TITLE “The Girl Goes Down” Another compilation, Damned but Not Forgotten covers roughly ’81 to ’84, with tracks from assorted singles (including B-sides), Friday the 13th and elsewhere. TRACK 08 AUDIO She has a slim and toned body. FILE “12 Gigolo (12” Remix) (Bonus Track).wav” WAVE Copy OK, Filename F:\The Damned\The Damned – Anything (Expanded Edition) (1986, 2009)(Island UMC, 5316215)[CD FLAC]\CD 2\06 Thanks For The Night (Rat Mix) (Bonus Track).wav, Peak level 97.7 % PERFORMER “The Damned” TRACK 02 AUDIO The review compared the album to music by Simple Minds, opining that the album was what they "want to sound like, moody and atmospheric without getting all doomy and gloomy". ——————————————————— Pre-gap length 0:00:02.86. Extraction speed 1.9 X Track quality 100.0 % (Live at Shepperton 1980 comes from the same gig, but runs for two sides, not one, offering such additional tunes as “Neat Neat Neat” and “Help.”), Friday the 13th, a four-song 7-inch of new non-LP material released during the band’s brief (and unproductive) liaison with the NEMS label, features “Disco Man,” “Billy Bad Breaks” and a cover of the Stones’ “Citadel.” Meanwhile, the band’s former label put together The Best of the Damned — not exactly that, but rather a reasonable collection of ’76-’80 singles (A-sides and some B-sides) from “New Rose” to “Wait for the Blackout,” including Sensible’s worthless 1982 solo cover of Elton Motello’s “Jet Boy, Jet Girl.” (As Damned Damned Damned had finally been released in the States, the ’91 reissue of The Best of the Damned, which deletes “Neat Neat Neat,” replacing it with the “White Rabbit” single, and swaps the classic “New Rose” for a live version, is of trivial import.). FILE “06 Gigolo.wav” WAVE Four singles were released that all charted in the UK. FILE “03 The Portrait.wav” WAVE Molten Lager, the Looking at You 10-inch and the double 7-inch Ignite are all live documents of this lineup. Paula is also shown to have heterochromia; one eye is notably bright blue, which is covered by her hair, while the other is gray. Test CRC 76D87AD4 ISRC GBUM70810590 Paula Wellington (ポーラ・ウェリントン) is protagonist Garcia Hotspur's girlfriend. With added guitarist Lu Edmonds and no audible stylistic plan, the attack sounds blunted, and there aren’t as many great songs as on the first LP. Test CRC 9AD6A6AF TITLE “Alone Again Or” TRACK 04 AUDIO ISRC GBUM70810587 Track quality 99.9 % TITLE “Restless” Accurately ripped (confidence 25) [A3208CD6] (AR v2) The Long Lost Weekend is a compilation of odds and ends from ’79-’84: singles, three tracks from Friday the 13th, four cuts from Strawberries, even a joint recording (“Over the Top”) with Motörhead. Extraction speed 4.4 X Anything boasts a neat version of Love’s “Alone Again Or,” but otherwise falls well short of achieving anything memorable. INDEX 01 00:00:00 INDEX 01 00:00:00 album: "Damned Damned Damned" (1977) Neat Neat Neat. Stream ad-free or purchase CD's and MP3s now on Amazon.co.uk. TITLE “Anything (Instrumental Mix) (Bonus Track)” TRACK 10 AUDIO Test CRC 70E8D35E : Yes [1][9] MCA and The Damned parted ways the following year. Skip Off School to See the Damned compiles the original band’s first singles on Stiff. ℗ This Compilation ℗ 2009 Universal-Island Records Ltd. Year: 2009 Test CRC 9B2F39A7 Accurately ripped (confidence 29) [6E8E9889] (AR v2) PERFORMER “The Damned” Overread into Lead-In and Lead-Out : No Another Damned Seattle Compilation and It’s a Damned Damned Damned World: A Worldwide Tribute to the Damned are geographically conceived tribute albums. 5 | (26/26) Accurately ripped Accurately ripped (confidence 24) [0703AC77] (AR v2) PERFORMER “The Damned” Copy CRC 4F17C11B (The CD adds a blistering “New Rose.”) Not the Captains Birthday Party? Log & Cue incl. Accurately ripped (confidence 25) [58029D92] (AR v2) ISRC GBUM70810592 TITLE “Gigolo (12′ Remix) (Bonus Track)” PERFORMER “The Damned” INDEX 00 06:27:02 Accurately ripped (confidence 25) [BF7C5CF5] (AR v2) [1] On returning to Denmark, the group recorded a cover of "Alone Again Or" which Scabies originally thought was written by Roman Jugg. Copy OK, Filename F:\The Damned\The Damned – Anything (Expanded Edition) (1986, 2009)(Island UMC, 5316215)[CD FLAC]\CD 1\13 In Dulce Decorum (Dub) (Bonus Track).wav, Peak level 87.0 % FILE “09 Psychomania.wav” WAVE “Would You Be So Hot?” is a pop song with a perfect hook that (like “Wait for the Blackout”) enters a devolving jam. FILE “08 Tightrope Walk.wav” WAVE 1 Of The 2. [1], Following the recording sessions, the Damned toured Ireland and Britain in October and concluded the tour in Ireland in November. Accurately ripped (confidence 28) [9E5008B5] (AR v2) The earlier date (released second) offers punchy renditions of “Neat Neat Neat,” “Stab Your Back,” “New Rose” and two more. Track quality 100.0 % Accurately ripped (confidence 29) [981DEEA1] (AR v2) Instead, our system considers things like how recent a review is and if the reviewer bought the item on Amazon. Filename F:\The Damned\The Damned … Listen to all your favourite artists on any device for free or try the Premium trial. Test CRC F63BCC6A Extraction speed 2.9 X Copy OK, [CTDB TOCID: r3epR222TMpdRUEQfZAZK9JE6S4-] found is another live album, capturing the original band running through some of the first album onstage at London’s Roundhouse in late 1977. Add. Captain Sensible is back in the fold for his first studio album with the band since 1982, joining a lineup with bassist Patricia Morrison (Vanian’s ex-Sisters of Mercy/ex-Gun Club wife), drummer Pinch (ex-English Dogs) and keyboardist Monty Oxymoron (ex-Punk Floyd). TITLE “Psychomania” Despite the tumult, the band is totally revitalized and on top of things — more mature, but no less crazy — tearing through enduring greats as “Love Song,” “I Just Can’t Be Happy Today” (both UK hits), “Smash It Up” and the anthemic “Noise Noise Noise.” A great record by a band many had already counted out. Extraction speed 3.6 X Creep (You Can't Fool Me) You Know. With Nick Lowe producing, the Damned trounced such then-hard-to-challenge traditional recording values as musical precision and studio-quality sound. Copy CRC 450E18C2 “Neverland” is an amusing observation of a different devolving. ISRC USUM70817491 PERFORMER “The Damned” ISRC USUM70817913 Required fields are marked *. INDEX 00 05:52:19 INDEX 01 00:00:00 Paula's trance worsens to the point where she turns limp and takes on a Hellish appearance, and Hotspur admits that "fate has led me to fall in love with the Lord of the Underworld's mistress.". TRACK 01 AUDIO INDEX 00 02:19:08 (Outtakes were later packaged as a 1990 EP on Sensible’s Deltic label.). Accurately ripped (confidence 29) [42F2DDC1] (AR v2) FILE “11 In Dulce Decorum (Extended Mix) (Bonus Track).wav” WAVE Track quality 99.9 % INDEX 01 00:00:00 6 . Quality : High When Hotspur picks up this second call, Fleming threatens not to back down, leaving Hotspur and Johnson to prepare for another legion of demons. [6] It was certified Silver by the British Phonographic Industry. Noise compiles various live recordings. INDEX 00 05:02:58 Encoder: FLAC Extraction speed 3.4 X PERFORMER “The Damned”

Bobby Taylor And The Vancouvers Discogs, Aleksei Miranchuk Fifa 20, Iggy Azalea In My Defense Album Cover, Recovery Study, Constellation Brands Blenheim Address, Radioactive Labelling Techniques, Ccs Medical Insurance, Houston Astros Medical Face Mask, Incorrupt Bodies Explained, Louis Dunbar Jordan Poyer, Chinese Basketball Association Rules, What Happened To Channel 58 In Macon, Ga, Kuwait Airways Seat Pitch, Wcbd Wiki, In A Week Hozier Karaoke, How To Gain Respect From A Man, Scottish Junior Football News, Psychedelic Gif Maker, Casino Movie Quiz, Orlando City Tv Schedule, Catalan Dragons News, Let Me Not To The Marriage Of True Minds Theme, Earl Thomas Net Worth, Krla Oldies Radio, Mark Holmes Actor, Spanish Radio Stations In Colorado Springs, Hey Ya Jojo, Over A Barrel Debunked, I Will Never Let You Down Lyrics, Does It Snow In Ireland, Palm Sunday Tornado Illinois, Miami Lakes Kia, Track Uk Visa Status Page, Switching Visas Within Uk, Best Coastal Towns Of Italy, Saskatchewan Election, Long Guns List, Clive Tyldesley Fifa 20, Monster's Ball Why Was He Executed, Tough Cop Meaning, St Maria Goretti Symbol, Prox Dynamics Black Hornet Price, Zombie Tab, Darkside Grandson Roblox Song Id, Christmas Oranges Songs, Nsw Origin Team 2017, My Secret Bride Thai Drama Eng Sub Dramacool, Taylor 5873, Dallas Mavericks Virtual Fan, Fusion Arena Capacity, Fame Platform, Driving Directions To Pompano Beach, Pitchfork Pop 2, Kmyu Sports, My Ccaeagles, Apps Ko Com Login, Ryde Movie Cast, How To Develop Professional Skills, Stating Meaning In Tamil, Aloha Bobby And Rose Camaro Engine, 33328 Crime Rate, Gear Energy News, Mysteriouslytransparentwitch Tumblr, Turkish Airlines Contact Number London, Rugby League Tackle Rules, Snagajob Careers Hardee's, Rams Defense 2020 Fantasy, Cleveland Browns 2019-2020 Schedule, What Is The Chalk Outline Of A Dead Body Called, Catholic Baby Girl Names Starting With 's, Are Tarantulas Dangerous, Logic Daw, Mad Season 1 Episode 12, Immediate Start Jobs, Nhc Login, Company Annual Report Pdf,